2015 Dual Audio Hindi English Movies Utorrent

суббота 23 ноябряadmin
2015 Dual Audio Hindi English Movies Utorrent Rating: 5,5/10 2601 reviews

Hindi + English Video Quality: HDRip 720p. Mkvcinemas Dual audio movies mkv torrent South. Download in hindi 18+ Movies download 18+ Hollywood Movies. The Hitmans Bodyguard 2017 Full List Of Hindi Dubbed (Hollywood) Movies, The Hitman. Dual audio eng-hindi movie 720p. Hindi movies hd,netflix,torrent. Cannabis sativa monograph pdf download torrent.

2015 Dual Audio Hindi English Movies Utorrent


Chappie (2015) 1080p BluRay x264 Dual Audio [Hindi DD2.0 - English DD5.1] - ESUBS ~ Ranvijay [Team SSX]
Thanks To Weapon-X For Hindi Audio
Buy RDP Online
General
Format : Matroska
Format version : Version 4 / Version 2
File size : 4.10 GiB
Duration : 2 h 0 min
Overall bit rate : 4 884 kb/s
Movie name : Chappie (2015) 1080p BluRay x264 Dual Audio [Hindi DD2.0 - English DD5.1] - ESUBS ~ Ranvijay
Video
ID : 1
Format : AVC
Format/Info : Advanced Video Codec
Duration : 2 h 0 min
Bit rate : 4 000 kb/s
Width : 1 920 pixels
Height : 800 pixels
Display aspect ratio : 2.40:1
Frame rate mode : Constant
Frame rate : 23.976 (24000/1001) FPS
Color space : YUV
Chroma subsampling : 4:2:0
Bit depth : 8 bits
Scan type : Progressive
Bits/(Pixel*Frame) : 0.109
Stream size : 3.36 GiB (82%)
Title : ~Ranvijay~
Audio #1
ID : 2
Format : AC-3
Format/Info : Audio Coding 3
Codec ID : A_AC3
Duration : 2 h 0 min
Bit rate mode : Constant
Bit rate : 448 kb/s
Channel(s) : 2 channels
Channel positions : Front: L R
Sampling rate : 48.0 kHz
Frame rate : 31.250 FPS (1536 SPF)
Bit depth : 16 bits
Compression mode : Lossy
Stream size : 386 MiB (9%)
Title : ~Ranvijay~
Language : Hindi
Service kind : Complete Main
Default : Yes
Forced : Yes
Audio #2
ID : 3
Format : AC-3
Format/Info : Audio Coding 3
Codec ID : A_AC3
Duration : 2 h 0 min
Bit rate mode : Constant
Bit rate : 384 kb/s
Channel(s) : 6 channels
Channel positions : Front: L C R, Side: L R, LFE
Sampling rate : 48.0 kHz
Frame rate : 31.250 FPS (1536 SPF)
Bit depth : 16 bits
Compression mode : Lossy
Stream size : 330 MiB (8%)
Title : ~Ranvijay~
Language : English
Service kind : Complete Main
Default : No
Forced : No
Text #1
ID : 4
Format : PGS
Muxing mode : zlib
Codec ID : S_HDMV/PGS
Codec ID/Info : Picture based subtitle format used on BDs/HD-DVDs
Duration : 1 h 52 min
Bit rate : 35.2 kb/s
Count of elements : 3220
Stream size : 28.2 MiB (1%)
Title : ~Ranvijay~
Language : English
Default : Yes
Forced : Yes
Text #2
ID : 5
Format : PGS
Muxing mode : zlib
Codec ID : S_HDMV/PGS
Codec ID/Info : Picture based subtitle format used on BDs/HD-DVDs
Duration : 1 h 52 min
Bit rate : 35.1 kb/s
Count of elements : 3216
Stream size : 28.2 MiB (1%)
Title : ~Ranvijay~
Language : English
Default : No
Forced : No
Text #3
ID : 6
Format : PGS
Muxing mode : zlib
Codec ID : S_HDMV/PGS
Codec ID/Info : Picture based subtitle format used on BDs/HD-DVDs
Duration : 1 h 53 min
Bit rate : 28.1 kb/s
Count of elements : 3764
Stream size : 22.8 MiB (1%)
Title : ~Ranvijay~
Language : English
Default : No
Forced : No
Text #4
ID : 7
Format : PGS
Muxing mode : zlib
Codec ID : S_HDMV/PGS
Codec ID/Info : Picture based subtitle format used on BDs/HD-DVDs
Duration : 1 h 53 min
Bit rate : 28.1 kb/s
Count of elements : 3764
Stream size : 22.8 MiB (1%)
Title : ~Ranvijay~
Language : English
Default : No
Forced : No
Menu
00:00:00.000 : en:00:00:00.000
00:03:37.008 : en:00:03:37.008
00:09:55.261 : en:00:09:55.261
00:13:50.496 : en:00:13:50.496
00:21:53.646 : en:00:21:53.646
00:31:17.125 : en:00:31:17.125
00:37:19.320 : en:00:37:19.320
00:46:58.733 : en:00:46:58.733
00:54:36.690 : en:00:54:36.690
01:06:12.927 : en:01:06:12.927
01:09:57.652 : en:01:09:57.652
01:16:48.395 : en:01:16:48.395
01:24:59.553 : en:01:24:59.553
01:31:35.198 : en:01:31:35.198
01:42:36.942 : en:01:42:36.942
01:50:03.597 : en:01:50:03.597

Don't walk as you are king, walk as you don't care who the king is..!!