Progressive House Collection 2013 Torrent

среда 25 июляadmin
Progressive House Collection 2013 Torrent Rating: 6,7/10 7415 reviews
Главная»Электронная музыка»House, Techno, Hardcore, Hardstyle, Jumpstyle»House (lossless)

Стаж: 10 лет

Сообщений: 253

nav81 · 18-Мар-13 11:24(6 лет 9 месяцев назад, ред. 18-Мар-13 11:26)

Sasha - Involv3r (WEB)
Жанр: Progressive House
Год издания: 2013
Издатель (лейбл): Ministry Of Sound
Номер по каталогу: MOSE290BPT
Аудиокодек: FLAC (*.flac)
Тип рипа: tracks
Битрейт аудио: lossless
Продолжительность: 05:09:53
Источник (релизер): israbox
Наличие сканов в содержимом раздачи: нет
Треклист:
01. Taragana Pyjarama feat. Kicki Halmos - Growing Forehead (Sasha Involv3r Remix)
02. ThermalBear feat. Arrow Down - Turn The Tide (Sasha Involv3r Remix)
03. Little Dragon - Crystal Film (Sasha Involv3r Remix)
04. The XX - Chained (Sasha Involv3r Remix)
05. Benjamin Damage & Doc Daneeka feat. Abigail Wyles - Battleships (Sasha Involv3r Remix)
06. Ultraista - Smalltalk (Sasha Involv3r Remix)
07. Ananda Project - Moment Before Dreaming (Sasha Involv3r Remix)
08. James Zabiela - The Healing (Sasha Involv3r Remix)
09. Blondes - Wine (Sasha Involv3r Remix)
10. Keep Shelly in Athens - DIY (Sasha Involv3r Remix)
11. Sasha feat. Kicki Halmos - Shoot You Down
12. Foals - Late Night (Sasha Involv3r Remix)
13. Taragana Pyjarama feat. Kicki Halmos - Growing Forehead (Sasha Beatless Remix)
14. ThermalBear feat. Arrow Down - Turn The Table (Sasha Beatless Remix)
15. Little Dragon - Crystal Film (Sasha Beatless Remix)
16. The xx - Chained (Sasha Beatless Remix)
17. Benjamin Damage & Doc Daneeka feat. Abigail Wyles - Battleships (Sasha Beatless Remix)
18. Ultraista - Smalltalk (Sasha Beatless Remix)
19. Ananda Project - Moment Before Dreaming (Sasha Beatless Remix)
20. Sasha – Involv3r (Continuous Mix)
21. Sasha – Beatless Mix (Continuous Mix)http://www.beatport.com/release/involv3r/1058562
Download
  • 1.73 GB
Сайт не распространяет и не хранит электронные версии произведений, а лишь предоставляет доступ к создаваемому пользователями каталогу ссылок на торрент-файлы, которые содержат только списки хеш-сумм
Как скачивать?(для скачивания .torrent файлов необходима регистрация)

Demonic16

Стаж: 11 лет 2 месяца

Сообщений: 2005

Demonic16 · 18-Мар-13 20:40(спустя 9 часов, ред. 18-Мар-13 20:40)

nav81
Спасибо
P.S. Если у кого есть - буду рад .cue

ucsus111

Стаж: 10 лет 11 месяцев

Сообщений: 104


ucsus111 · 18-Мар-13 22:56(спустя 2 часа 15 мин.)

На битпорте cue не бывает. Если кто-то сам с дисков снимет (если CD релиз вообще был), или накройняк сочинит

Demonic16

Стаж: 11 лет 2 месяца

Сообщений: 2005

Demonic16 · 18-Мар-13 22:58(спустя 2 мин.)

vladspb

Стаж: 11 лет 7 месяцев

Сообщений: 470

vladspb · 19-Мар-13 00:09(спустя 1 час 11 мин.)

P.S. Если у кого есть - буду рад .cue
https://rutracker.org/forum/viewtopic.php?t=4383913

ucsus111

Стаж: 10 лет 11 месяцев

Harley engine serial numbers. Early motorcycles generally had the same number for the engine and frame (often referred to as matching). However, occasionally an engine case (containing the original number) may have been replaced due to damage and will not, therefore, have a number stamped on it.

Сообщений: 104


ucsus111 · 19-Мар-13 02:46(спустя 2 часа 36 мин., ред. 19-Мар-13 02:46)

vladspb, Спасибо, слепил на основе CD-индексов и логов:
REM GENRE Tech House, Progressive, Electronica
REM DATE 2013
REM DISCID A012850C
REM COMMENT '
REM PUBLISHER 'Ministry of Sound (UK)'
PERFORMER 'Sasha'
TITLE 'Involv3r (CD 1)'
FILE '20. Various - Involv3r (continuous DJ mix by Sasha).flac' WAVE
TRACK 01 AUDIO
TITLE 'Growing Forehead (Sasha Involv3r Remix)'
PERFORMER 'Taragana Pyjarama Feat. Kicki Halmos'
ISRC DEU671300082
INDEX 01 00:00:00
TRACK 02 AUDIO
TITLE 'Turn The Tide (Sasha Involv3r Remix)'
PERFORMER 'ThermalBear Feat. Arrows Down'
ISRC GB94U1300073
FLAGS DCP
INDEX 01 07:35:62
TRACK 03 AUDIO
TITLE 'Crystalfilm (Sasha Involv3r Remix)'
PERFORMER 'Little Dragon'
ISRC GBEWK1300020
FLAGS DCP
INDEX 01 11:45:38
TRACK 04 AUDIO
TITLE 'Chained (Sasha Involv3r Remix)'
PERFORMER 'The xx'
ISRC GBBKS1300020
FLAGS DCP
INDEX 01 17:18:31
TRACK 05 AUDIO
TITLE 'Battleships (Sasha Involv3r Remix)'
PERFORMER 'Benjamin Damage & Doc Daneeka Feat. Abigail Wyles'
ISRC GBBKS1300020
FLAGS DCP
INDEX 01 24:00:74
TRACK 06 AUDIO
TITLE 'Smalltalk (Sasha Involv3r Remix)'
PERFORMER 'Ultraista'
ISRC GBHVW1300001
FLAGS DCP
INDEX 01 30:59:04
TRACK 07 AUDIO
TITLE 'Moment Before Dreaming (Sasha Involv3r Remix)'
PERFORMER 'Ananda Project'
ISRC USA671300063
FLAGS DCP
INDEX 01 37:48:07
TRACK 08 AUDIO
TITLE 'The Healing (Sasha Involv3r Remix)'
PERFORMER 'James Zabiela'
ISRC GBTE51200006
FLAGS DCP
INDEX 01 44:42:46
TRACK 09 AUDIO
TITLE 'Wine (Sasha Involv3r Remix)'
PERFORMER 'Blondes'
ISRC US6PQ1300002
FLAGS DCP
INDEX 01 51:56:12
TRACK 10 AUDIO
TITLE 'DIY (Sasha Involv3r Remix)'
PERFORMER 'Keep Shelly In Athens'
ISRC GBCEN1300086
FLAGS DCP
INDEX 01 57:26:34
TRACK 11 AUDIO
TITLE 'Shoot You Down'
PERFORMER 'Sasha Feat. Kicki Halmos'
ISRC GB94U1300072
FLAGS DCP
INDEX 01 63:00:14
TRACK 12 AUDIO
TITLE 'Late Night (Sasha Involv3r Remix)'
PERFORMER 'Foals'
ISRC GBAHT1300075
FLAGS DCP
INDEX 01 68:53:07
REM GENRE Ambient, Chill-Out, Electronica
REM DATE 2013
REM DISCID 690B3E07
REM PUBLISHER 'Ministry of Sound (UK)'
PERFORMER 'Sasha'
TITLE 'Involv3r (Continuous DJ Mix 2: Beatless Mix)'
FILE '21. Various - Beatless Mix (continuous DJ mix by Sasha).flac' WAVE
TRACK 01 AUDIO
TITLE 'Growing Forehead (Sasha Beatless Remix)'
PERFORMER 'Taragana Pyjarama Feat. Kicki Halmos'
ISRC DEU671300086
INDEX 01 00:00:00
TRACK 02 AUDIO
TITLE 'Turn The Tide (Sasha Beatless Remix)'
PERFORMER 'ThermalBear Feat. Arrows Down'
ISRC DEU671300086
FLAGS DCP
INDEX 01 03:45:41
TRACK 03 AUDIO
TITLE 'Crystalfilm (Sasha Beatless Remix)'
PERFORMER 'Little Dragon'
ISRC GBEWK1300021
FLAGS DCP
INDEX 01 08:55:17
TRACK 04 AUDIO
TITLE 'Chained (Sasha Beatless Remix)'
PERFORMER 'The xx'
ISRC GBEWK1300021
FLAGS DCP
INDEX 01 15:37:61
TRACK 05 AUDIO
TITLE 'Battleships (Sasha Beatless Remix)'
PERFORMER 'Benjamin Damage & Doc Daneeka Feat. Abigail Wyles'
ISRC DEOE81220096
FLAGS DCP
INDEX 01 23:22:24
TRACK 06 AUDIO
TITLE 'Smalltalk (Sasha Beatless Remix)'
PERFORMER 'Ultraista'
ISRC GBHVW1300002
FLAGS DCP
INDEX 01 31:37:61
TRACK 07 AUDIO
TITLE 'Moment Before Dreaming (Sasha Beatless Remix)'
PERFORMER 'Ananda Project'
ISRC GBHVW1300002
FLAGS DCP
INDEX 01 39:45:41

Димарик333

Стаж: 11 лет

Сообщений: 627

Димарик333 · 19-Мар-13 10:37(спустя 7 часов)

Саша снова проделал обалденную работу! Миксы высшего разряда! Спасибо за флак, nav81! Просто шик!

metota2

Стаж: 9 лет 10 месяцев

Сообщений: 86

metota2 · 19-Мар-13 13:04(спустя 2 часа 27 мин.)

Димарик333

Стаж: 11 лет

Сообщений: 627

Димарик333 · 20-Мар-13 10:06(спустя 21 час, ред. 21-Мар-13 09:10)

Я просто тащусь от этой темы! Зацените клипак!
http://www.youtube.com/watch?v=ZFKFx1Ho-68
Вот еще к ориджинал версии Little Dragon - Crystalfilm есть прикольненький клип.
http://www.youtube.com/watch?v=EDVrTYW2l84
Для полного счастья!

eastbox

Стаж: 10 лет

Сообщений: 40


eastbox · 20-Мар-13 20:20(спустя 10 часов)

есть ли такие кто после прослушивания микса послушает еще и отдельно каждый трек?

Alexein64

Стаж: 9 лет 11 месяцев

Сообщений: 14

Alexein64 · 23-Мар-13 23:59(спустя 3 дня)

[email protected]

Стаж: 8 лет 2 месяца

Сообщений: 5


[email protected] · 26-Мар-13 13:22(спустя 2 дня 13 часов)

Qcher

Стаж: 11 лет

Сообщений: 3


Qcher · 28-Мар-13 20:34(спустя 2 дня 7 часов)

Спасибо ОГРОМНОЕ! Долгожданный релиз! PS Сорри за флуд, не удержался!

GorSm

Стаж: 8 лет 10 месяцев

Сообщений: 10


GorSm · 05-Апр-13 23:01(спустя 8 дней)

chelllden

Стаж: 10 лет 3 месяца

Сообщений: 181

chelllden · 13-Апр-13 09:11(спустя 7 дней)

zhesso

Стаж: 10 лет 4 месяца

Сообщений: 3


zhesso · 27-Дек-13 12:08(спустя 8 месяцев)

Кому как.
А для меня это Творение - релиз года!
Сегодня устанавливаю оборудование в новое авто с магнитолой читающей FLAC, ес-но первым заиграет Sasha – Involv3r (Continuous Mix)

Hijack10

Стаж: 10 лет 9 месяцев

Сообщений: 521

Hijack10 · 06-Янв-20 14:32(спустя 6 лет)

Главная»Электронная музыка»House, Techno, Hardcore, Hardstyle, Jumpstyle»House (lossless)

Best of 2013 - Progressive House Collection, an album by Various Artists on Spotify We and our partners use cookies to personalize your experience, to show you ads based on your interests, and for measurement and analytics purposes. Juno Download Progressive House bestsellers chart This Week. Acclaimed Italian duo Tale Of Us present the third Realm Of Consciousness compilation on Afterlife Recordings. A collection of spellbinding and melodic epics packed full of narratives plus plenty of dancefloor drama awaits with some rather surprising additions too - artist wise. Dragonfable easy exp and gold generator download pc.